Le.chat.Croque.Les.Diamants.(Deadfall).1968.BD.Remux.VOSTFR.x264.FLAC.1.0-EPSiLON.mkv

Format                                   : Matroska
Format version                           : Version 4
File size                                : 15.6 GiB
Duration                                 : 1 h 59 min
Overall bit rate mode                    : Variable
Overall bit rate                         : 18.7 Mb/s
Encoded date                             : UTC 2022-11-25 07:21:03
Writing application                      : mkvmerge v41.0.0 ('Smarra') 64-bit
Writing library                          : libebml v1.3.9 + libmatroska v1.5.2

Video
ID                                       : 1
Format                                   : AVC
Format/Info                              : Advanced Video Codec
Format profile                           : [email protected]
Format settings                          : CABAC / 3 Ref Frames
Format settings, CABAC                   : Yes
Format settings, Reference frames        : 3 frames
Codec ID                                 : V_MPEG4/ISO/AVC
Duration                                 : 1 h 59 min
Bit rate mode                            : Variable
Bit rate                                 : 18.0 Mb/s
Maximum bit rate                         : 40.0 Mb/s
Width                                    : 1 920 pixels
Height                                   : 1 080 pixels
Display aspect ratio                     : 16:9
Frame rate mode                          : Constant
Frame rate                               : 23.976 (24000/1001) FPS
Color space                              : YUV
Chroma subsampling                       : 4:2:0
Bit depth                                : 8 bits
Scan type                                : Progressive
Bits/(Pixel*Frame)                       : 0.362
Stream size                              : 15.1 GiB (96%)
Writing library                          : x264 core 148 r2705 3f5ed56


Audio
ID                                       : 2
Format                                   : FLAC
Format/Info                              : Free Lossless Audio Codec
Codec ID                                 : A_FLAC
Duration                                 : 1 h 59 min
Bit rate mode                            : Variable
Bit rate                                 : 650 kb/s
Channel(s)                               : 1 channel
Channel layout                           : C
Sampling rate                            : 48.0 kHz
Frame rate                               : 11.719 FPS (4096 SPF)
Bit depth                                : 24 bits
Compression mode                         : Lossless
Stream size                              : 557 MiB (3%)
Title                                    : English FLAC 1.0
Writing library                          : libFLAC 1.3.3 (UTC 2019-08-04)
Language                                 : English
Default                                  : Yes
Forced                                   : No

Text #1
ID                                       : 3
Format                                   : PGS
Muxing mode                              : zlib
Codec ID                                 : S_HDMV/PGS
Codec ID/Info                            : Picture based subtitle format used on BDs/HD-DVDs
Duration                                 : 1 h 58 min
Bit rate                                 : 31.7 kb/s
Count of elements                        : 2385
Stream size                              : 26.8 MiB (0%)
Title                                    : English SDH
Language                                 : English
Default                                  : No
Forced                                   : No

Text #2
ID                                       : 4
Format                                   : UTF-8
Codec ID                                 : S_TEXT/UTF8
Codec ID/Info                            : UTF-8 Plain Text
Duration                                 : 1 h 51 min
Bit rate                                 : 44 b/s
Count of elements                        : 1047
Stream size                              : 36.2 KiB (0%)
Title                                    : French Complet SRT
Language                                 : French
Default                                  : Yes
Forced                                   : Yes

Text #3
ID                                       : 5
Format                                   : UTF-8
Codec ID                                 : S_TEXT/UTF8
Codec ID/Info                            : UTF-8 Plain Text
Duration                                 : 1 h 58 min
Bit rate                                 : 48 b/s
Count of elements                        : 1193
Stream size                              : 42.2 KiB (0%)
Title                                    : English SDH SRT
Language                                 : English
Default                                  : No
Forced                                   : No

Menu
00:00:00.000                             : en:Chapter 1
00:09:50.548                             : en:Chapter 2
00:21:58.108                             : en:Chapter 3
00:32:20.897                             : en:Chapter 4
00:39:41.462                             : en:Chapter 5
00:49:18.956                             : en:Chapter 6
00:59:10.213                             : en:Chapter 7
01:04:54.390                             : en:Chapter 8
01:14:33.886                             : en:Chapter 9
01:26:44.157                             : en:Chapter 10
01:39:25.668                             : en:Chapter 11
01:49:56.006                             : en:Chapter 12