General
Unique ID                                : 28715466542576954401743374780357740877 (0x159A65CEE3D2C6E286C518E95A19094D)
Complete name                            : Entre les jambes.mkv httpswww.imdb.comtitlett0177747
Format                                   : Matroska
Format version                           : Version 4
File size                                : 5.28 GiB
Duration                                 : 1 h 55 min
Overall bit rate mode                    : Variable
Overall bit rate                         : 6 563 kb/s
Movie name                               : Entre les jambes
Encoded date                             : UTC 2023-01-23 17:49:00
Writing application                      : mkvmerge v28.2.0 ('The Awakening') 64-bit
Writing library                          : libebml v1.3.6 + libmatroska v1.4.9

Video
ID                                       : 1
Format                                   : MPEG Video
Format version                           : Version 2
Format profile                           : [email protected]
Format settings                          : BVOP
Format settings, BVOP                    : Yes
Format settings, Matrix                  : Default
Format settings, GOP                     : M=3, N=13
Format settings, picture structure       : Frame
Codec ID                                 : V_MPEG2
Codec ID/Info                            : MPEG 1 or 2 Video
Duration                                 : 1 h 55 min
Bit rate mode                            : Variable
Bit rate                                 : 6 112 kb/s
Maximum bit rate                         : 8 100 kb/s
Width                                    : 720 pixels
Height                                   : 576 pixels
Display aspect ratio                     : 16:9
Original display aspect ratio            : 2.40:1
Frame rate mode                          : Constant
Frame rate                               : 25.000 FPS
Standard                                 : PAL
Color space                              : YUV
Chroma subsampling                       : 4:2:0
Bit depth                                : 8 bits
Scan type                                : Interlaced
Scan order                               : Top Field First
Compression mode                         : Lossy
Bits/(Pixel*Frame)                       : 0.590
Time code of first frame                 : 10:00:00:00
Time code source                         : Group of pictures header
GOP, Open/Closed                         : Open
Stream size                              : 4.91 GiB (93%)
Language                                 : Spanish
Default                                  : Yes
Forced                                   : No
Color primaries                          : BT.601 PAL
Transfer characteristics                 : BT.470 System B/G
Matrix coefficients                      : BT.470 System B/G

Audio
ID                                       : 2
Format                                   : AC-3
Format/Info                              : Audio Coding 3
Commercial name                          : Dolby Digital
Codec ID                                 : A_AC3
Duration                                 : 1 h 55 min
Bit rate mode                            : Constant
Bit rate                                 : 448 kb/s
Channel(s)                               : 6 channels
Channel layout                           : L R C LFE Ls Rs
Sampling rate                            : 48.0 kHz
Frame rate                               : 31.250 FPS (1536 SPF)
Compression mode                         : Lossy
Stream size                              : 369 MiB (7%)
Title                                    : DD 5.1
Language                                 : French
Service kind                             : Complete Main
Default                                  : Yes
Forced                                   : No

Text #1
ID                                       : 3
Format                                   : VobSub
Muxing mode                              : zlib
Codec ID                                 : S_VOBSUB
Codec ID/Info                            : Picture based subtitle format used on DVDs
Bit rate                                 : 0 b/s
Count of elements                        : 0
Stream size                              : 0.00 Byte (0%)
Language                                 : French
Default                                  : No
Forced                                   : No

Text #2
ID                                       : 4
Format                                   : VobSub
Muxing mode                              : zlib
Codec ID                                 : S_VOBSUB
Codec ID/Info                            : Picture based subtitle format used on DVDs
Bit rate                                 : 0 b/s
Count of elements                        : 0
Stream size                              : 0.00 Byte (0%)
Language                                 : French
Default                                  : No
Forced                                   : No

Menu
00:00:00.000                             : en:(01)00:00:00:000
00:05:54.640                             : en:(02)00:05:54:640
00:09:17.440                             : en:(03)00:09:17:440
00:20:19.920                             : en:(04)00:20:19:920
00:26:43.680                             : en:(05)00:26:43:680
00:32:30.520                             : en:(06)00:32:30:520
00:38:03.320                             : en:(07)00:38:03:320
00:46:51.640                             : en:(08)00:46:51:640
00:50:17.040                             : en:(09)00:50:17:040
00:55:57.120                             : en:(10)00:55:57:120
01:01:35.640                             : en:(11)01:01:35:640
01:07:52.640                             : en:(12)01:07:52:640
01:16:03.000                             : en:(13)01:16:03:000
01:21:32.160                             : en:(14)01:21:32:160
01:25:09.520                             : en:(15)01:25:09:520
01:29:40.960                             : en:(16)01:29:40:960
01:39:14.520                             : en:(17)01:39:14:520
01:49:01.080                             : en:(18)01:49:01:080