29/11/2014

================================================================================
*           The.Maze.Runner.2014.TRUEFRENCH.DVDRiP.MD.XviD-SHiFT.avi           *
================================================================================
* Format                        : AVI                                          *
* Format/Info                   : Audio Video Interleave                       *
* File size                     : 1.35 GiB                                     *
* Duration                      : 1h 53mn                                      *
* Overall bit rate              : 1 698 Kbps                                   *
* Movie name                    : The.Maze.Runner.2014.TRUEFRENCH.DVDRiP.MD.Xv *
* Writing application           : VirtualDub build 35491/release               *
* Copyright                     : SHiFT                                        *
* Comment                       : The.Maze.Runner.2014.TRUEFRENCH.DVDRiP.MD.Xv *
* ================================== Video =================================== *
* ID                            : 0                                            *
* Format                        : MPEG-4 Visual                                *
* Format profile                : [email protected]                                    *
* Format settings, BVOP         : No                                           *
* Format settings, QPel         : No                                           *
* Format settings, GMC          : No warppoints                                *
* Format settings, Matrix       : Default (H.263)                              *
* Codec ID                      : XVID                                         *
* Codec ID/Hint                 : XviD                                         *
* Duration                      : 1h 53mn                                      *
* Bit rate                      : 1 560 Kbps                                   *
* Width                         : 720 pixels                                   *
* Height                        : 304 pixels                                   *
* Display aspect ratio          : 2.35:1                                       *
* Frame rate                    : 23.976 fps                                   *
* Color space                   : YUV                                          *
* Chroma subsampling            : 4:2:0                                        *
* Bit depth                     : 8 bits                                       *
* Scan type                     : Progressive                                  *
* Compression mode              : Lossy                                        *
* Bits/(Pixel*Frame)            : 0.297                                        *
* Stream size                   : 1.24 GiB (92%)                               *
* Writing library               : Lavc56.1.100                                 *
* ================================= Audio #1 ================================= *
* ID                            : 1                                            *
* Format                        : MPEG Audio                                   *
* Format version                : Version 1                                    *
* Format profile                : Layer 3                                      *
* Mode                          : Joint stereo                                 *
* Mode extension                : MS Stereo                                    *
* Codec ID                      : 55                                           *
* Codec ID/Hint                 : MP3                                          *
* Duration                      : 1h 53mn                                      *
* Bit rate mode                 : Constant                                     *
* Bit rate                      : 128 Kbps                                     *
* Channel(s)                    : 2 channels                                   *
* Sampling rate                 : 48.0 KHz                                     *
* Compression mode              : Lossy                                        *
* Stream size                   : 104 MiB (8%)                                 *
* Alignment                     : Split accross interleaves                    *
* Interleave, duration          : 42 ms (1.00 video frame)                     *
* Interleave, preload duration  : 500 ms                                       *
* Language                      : un                                           *

================================================================================
*                           INFORMATION SUR LE POST                            *
================================================================================
* Taille des donnees sans par2..: 1.35 Go                                      *
* Nombre de rar.................: 29                                           *
* Taille des rar................: 47.97 Mo                                     *
* Par2..........................: 9%                                           *
* Nombre de bloc de recuperation: 113                                          *
* Taille d'un bloc..............: 1.10 Mo                                      *