[center][img]http://i.imgur.com/0tj1vEt.jpg[/img]

 
[color=blue][size=4][b]A.Dogs.Purpose.2017.HC.TCRip.XVID.AC3.HQ.Hive-CM8[/b][/size][/color]

Thx Hive

CM8 Doing It Right The First Time 

Sources:
Video: 1,4gb Chinese Hardcoded 720P TC	
Audio: English Line/Studio
thx


Notes:
Found the Chinese Telecinevideo, quality was nice,although bitrate could have been higher.
has the usual chinese subs and some watermarks, a mix of floating and constant ones switching around.
removing them all would look odd, so i only blurred the spots which had a annoying constant big white mark
The constant ones were shown for 20mins each in the corners, so they are gone, the rest are here and theire for cpl secs only..


Encode:
fixed brightness,contrast,rgb and added bit sharpness. it came with english studio line audio but was oos a lot, so i resynced audio
all good now
will do me till retail
enjoy



Video: 720x336 @bitrate 1700 2pass
Audio: English Studio/Line AC3 2.0 stereo
Sample: yes included


http://www.imdb.com/title/tt1753383/


General
Complete name                  : A.Dogs.Purpose.2017.HC.TCRip.XVID.AC3.HQ.Hive-CM8.avi
Format                         : AVI
Format/Info                    : Audio Video Interleave
File size                      : 1.28 GiB
Duration                       : 1h 33mn
Overall bit rate               : 1 953 Kbps
Writing application            : Nandub v1.0rc2
Writing library                : Nandub build 1853/release

Video
ID                             : 0
Format                         : MPEG-4 Visual
Format profile                 : Advanced [email protected]
Format settings, BVOP          : 2
Format settings, QPel          : Yes
Format settings, GMC           : No warppoints
Format settings, Matrix        : Default (H.263)
Muxing mode                    : Packed bitstream
Codec ID                       : XVID
Codec ID/Hint                  : XviD
Duration                       : 1h 33mn
Bit rate                       : 1 688 Kbps
Width                          : 720 pixels
Height                         : 336 pixels
Display aspect ratio           : 2.143
Frame rate                     : 25.000 fps
Color space                    : YUV
Chroma subsampling             : 4:2:0
Bit depth                      : 8 bits
Scan type                      : Progressive
Compression mode               : Lossy
Bits/(Pixel*Frame)             : 0.279
Stream size                    : 1.11 GiB (86%)
Writing library                : XviD 1.2.1 (UTC 2008-12-04)

Audio
ID                             : 1
Format                         : AC-3
Format/Info                    : Audio Coding 3
Mode extension                 : CM (complete main)
Format settings, Endianness    : Big
Codec ID                       : 2000
Duration                       : 1h 33mn
Bit rate mode                  : Constant
Bit rate                       : 256 Kbps
Channel(s)                     : 2 channels
Channel positions              : Front: L R
Sampling rate                  : 48.0 KHz
Bit depth                      : 16 bits
Compression mode               : Lossy
Stream size                    : 172 MiB (13%)
Alignment                      : Split accross interleaves
Interleave, duration           : 40 ms (1.00 video frame)
Interleave, preload duration   : 500 ms




Screens 

[img]http://i.imgur.com/FG8pwIV.png[/img]
[img]http://i.imgur.com/CKxfaP0.png[/img]
[img]http://i.imgur.com/QbSS4ja.png[/img]
[img]http://i.imgur.com/K7R02Yh.png[/img]
[img]http://i.imgur.com/ecQ4vxz.png[/img]
[img]http://i.imgur.com/BDmmWjB.png[/img]


Plot

A dog looks to discover his purpose in life over the course of several lifetimes and owners.


Cast overview, first billed only: 

Josh Gad		...	Bailey / Buddy / Tino / Ellie (voice)
Dennis Quaid		...	Adult Ethan
Peggy Lipton		...	Adult Hannah
K.J. Apa		...	Teen Ethan (as KJ Apa)
Bryce Gheisar		...	Ethan - 8 Years Old
Juliet Rylance		...	Ethan's Mom
Luke Kirby		...	Ethan's Dad
Gabrielle Rose		...	Grandma Fran
Michael Bofshever	...	Grandpa Bill
Britt Robertson		...	Teen Hannah
Logan Miller		...	Todd
Kirby Howell-Baptiste	...	Maya
Pooch Hall		...	Al
John Ortiz		...	Carlos
Nicole LaPlaca		...	Wendi


COME FIND US WE DONT BITE[/center]