Duran Duran
Big Live Thing DVD
Tokyo Egg Dome, Tokyo, Japan 22.2.1989


PROSHOT DVD

AUDIO:10 (LPCM-2 CH)
VIDEO:10
Menu with chapter selection


Set List:

God
Big Thing
I Don┤t Want Your Love
Hungry Like The Wolf
Do You Believe In Shame?
Maximum Big Surprise
Some Like It Hot
All She Wants Is
Planet Earth
Palomino
A View To A Kill
Edge of America/Lake Shore Driving
Skin Trade
Girls On Film
Notorious
Is There Something I Should Know?
Save A Prayer
Get It On (Bang A Gong)
The Reflex
Rio

Media Info:
General
Complete name                            : C:\Users\Luke_of_Mass\Downloads\Duran Duran - Tokyo Egg Dome, Tokyo, Japan - 1989-02-22\VIDEO_TS\VTS_01_3.VOB
Format                                   : MPEG-PS
File size                                : 1 024 MiB
Duration                                 : 21 min 59 s
Overall bit rate mode                    : Variable
Overall bit rate                         : 6 509 kb/s

Video
ID                                       : 224 (0xE0)
Format                                   : MPEG Video
Format version                           : Version 2
Format profile                           : [email protected]
Format settings                          : CustomMatrix / BVOP
Format settings, BVOP                    : Yes
Format settings, Matrix                  : Custom
Format settings, GOP                     : M=3, N=12
Format settings, picture structure       : Frame
Duration                                 : 21 min 59 s
Bit rate mode                            : Variable
Bit rate                                 : 4 844 kb/s
Maximum bit rate                         : 7 500 kb/s
Width                                    : 720 pixels
Height                                   : 576 pixels
Display aspect ratio                     : 4:3
Frame rate                               : 25.000 FPS
Standard                                 : PAL
Color space                              : YUV
Chroma subsampling                       : 4:2:0
Bit depth                                : 8 bits
Scan type                                : Interlaced
Scan order                               : Bottom Field First
Compression mode                         : Lossy
Bits/(Pixel*Frame)                       : 0.467
Time code of first frame                 : 01:01:12:04
Time code source                         : Group of pictures header
GOP, Open/Closed                         : Closed
Stream size                              : 762 MiB (74%)
Color primaries                          : BT.601 PAL
Transfer characteristics                 : BT.470 System B/G
Matrix coefficients                      : BT.601

Audio
ID                                       : 189 (0xBD)-160 (0xA0)
Format                                   : PCM
Format settings                          : Big / Signed
Muxing mode                              : DVD-Video
Duration                                 : 21 min 59 s
Bit rate mode                            : Constant
Bit rate                                 : 1 536 kb/s
Channel(s)                               : 2 channels
Sampling rate                            : 48.0 kHz
Bit depth                                : 16 bits
Delay relative to video                  : -353 ms
Stream size                              : 242 MiB (24%)

Menu