.____/\ ._______  ._______     _______________
       :   /  \: .___  \ : __   /     ___  ____/_<  /
       |.  ___/| :   |  ||  |>  \     __  /_   __  /
       |     \ |     :  ||  |>   \    _  __/   _  /
       |      \ \_. ___/ |_______/    /_/      /_/  
       |___\  /   :/                  
            \/    :                   
               

____________________________________________________________

Duration                                 : 27mn 10s
Width                                    : 1920 pixels
Height                                   : 1080 pixels
Display aspect ratio                     : 16:9
Frame rate mode                          : Constant
Frame rate                               : 25.000 fps
Audio                                    : AAC 2.0
____________________________________________________________


General
Unique ID                                : 233633130585870393776315368398898673869 (0xAFC41AAE232DC721A9B62C37467D38CD)
Complete name                            : Formula1.2017.F1.Report.Australia.1080p.WEB.H264.mkv
Format                                   : Matroska
Format version                           : Version 4 / Version 2
File size                                : 681 MiB
Duration                                 : 27 min 10 s
Overall bit rate                         : 3 506 kb/s
Encoded date                             : UTC 2017-04-09 12:20:07
Writing application                      : mkvmerge v9.4.2 ('So High') 64bit
Writing library                          : libebml v1.3.4 + libmatroska v1.4.5

Video
ID                                       : 1
Format                                   : AVC
Format/Info                              : Advanced Video Codec
Format profile                           : [email protected]
Format settings, CABAC                   : Yes
Format settings, ReFrames                : 4 frames
Codec ID                                 : V_MPEG4/ISO/AVC
Duration                                 : 27 min 10 s
Bit rate                                 : 3 376 kb/s
Nominal bit rate                         : 3 600 kb/s
Width                                    : 1 920 pixels
Height                                   : 1 080 pixels
Display aspect ratio                     : 16:9
Frame rate mode                          : Constant
Frame rate                               : 25.000 FPS
Color space                              : YUV
Chroma subsampling                       : 4:2:0
Bit depth                                : 8 bits
Scan type                                : Progressive
Bits/(Pixel*Frame)                       : 0.065
Stream size                              : 656 MiB (96%)
Writing library                          : x264 core 136 r63M 8fcf9de
Encoding settings                        : cabac=1 / ref=3 / deblock=1:0:0 / analyse=0x3:0x113 / me=hex / subme=7 / psy=1 / psy_rd=1.00:0.00 / mixed_ref=1 / me_range=16 / chroma_me=1 / trellis=1 / 8x8dct=1 / cqm=0 / deadzone=21,11 / fast_pskip=1 / chroma_qp_offset=-2 / threads=24 / lookahead_threads=4 / sliced_threads=0 / nr=0 / decimate=1 / interlaced=0 / bluray_compat=0 / constrained_intra=0 / bframes=3 / b_pyramid=2 / b_adapt=1 / b_bias=0 / direct=1 / weightb=1 / open_gop=0 / weightp=2 / keyint=125 / keyint_min=12 / scenecut=0 / intra_refresh=0 / rc_lookahead=40 / rc=cbr / mbtree=1 / bitrate=3600 / ratetol=1.0 / qcomp=0.60 / qpmin=0 / qpmax=69 / qpstep=4 / vbv_maxrate=3600 / vbv_bufsize=7200 / nal_hrd=none / ip_ratio=1.40 / aq=1:1.00
Language                                 : English
Default                                  : Yes
Forced                                   : No

Audio
ID                                       : 2
Format                                   : AAC
Format/Info                              : Advanced Audio Codec
Format profile                           : LC
Codec ID                                 : A_AAC
Duration                                 : 27 min 10 s
Bit rate                                 : 128 kb/s
Channel(s)                               : 2 channels
Channel positions                        : Front: L R
Sampling rate                            : 44.1 kHz
Frame rate                               : 43.066 FPS (1024 spf)
Compression mode                         : Lossy
Delay relative to video                  : -80 ms
Stream size                              : 24.9 MiB (4%)
Language                                 : English
Default                                  : Yes
Forced                                   : No