Spider-Man Homecoming 2017 720P HDTC x264-IA5

Genre: Action | Adventure | Sci-Fi
IMDB: http://www.imdb.com/title/tt2250912/
Directed by: Jon Watts
Starring: Tom Holland, Michael Keaton, Robert Downey Jr.
Language: English
Plot: Thrilled by his experience with the Avengers, 
Peter returns home, where he lives with his Aunt May, 
under the watchful eye of his new mentor Tony Stark, 
Peter tries to fall back into his normal daily routine û 
distracted by thoughts of proving himself to be more 
than just your friendly neighborhood Spider-Man û 
but when the Vulture emerges as a new villain, 
everything that Peter holds most important will 
be threatened.

NFO:
Release Name: Spider-Man.Homecoming.2017.720P.HDTC.x264-IA5
Size: 3.54 GiB
Video: MKV | 1280╫528 | 3 908 kb/s
Audio: English | MP3 | 212 kb/s
Runtime: 2 h 2 min
Subtitles: N/A

MEDIAINFO:

General
Unique ID                                : 180170317287985779974267817726048373918 (0x878B8A796FA56DEBA7318CFEAA028C9E)
Complete name                            : D:\S.M.H.2017.720P.HDTC-IA5.mkv
Format                                   : Matroska
Format version                           : Version 4 / Version 2
File size                                : 3.54 GiB
Duration                                 : 2 h 2 min
Overall bit rate mode                    : Variable
Overall bit rate                         : 4 123 kb/s
Encoded date                             : UTC 2017-07-26 04:17:20
Writing application                      : mkvmerge v9.5.0 ('Quiet Fire') 64bit
Writing library                          : libebml v1.3.4 + libmatroska v1.4.5
 
Video
ID                                       : 2
Format                                   : AVC
Format/Info                              : Advanced Video Codec
Format profile                           : [email protected]
Format settings, CABAC                   : Yes
Format settings, ReFrames                : 12 frames
Codec ID                                 : V_MPEG4/ISO/AVC
Duration                                 : 2 h 2 min
Bit rate mode                            : Variable
Bit rate                                 : 3 908 kb/s
Maximum bit rate                         : 4 100 kb/s
Width                                    : 1 280 pixels
Height                                   : 528 pixels
Display aspect ratio                     : 2.40:1
Frame rate mode                          : Constant
Frame rate                               : 30.000 FPS
Standard                                 : Component
Color space                              : YUV
Chroma subsampling                       : 4:2:0
Bit depth                                : 8 bits
Scan type                                : Progressive
Bits/(Pixel*Frame)                       : 0.193
Stream size                              : 3.35 GiB (95%)
Default                                  : No
Forced                                   : No
Color range                              : Limited
Color primaries                          : BT.709
Transfer characteristics                 : BT.709
Matrix coefficients                      : BT.709
 
Audio
ID                                       : 1
Format                                   : MPEG Audio
Format version                           : Version 1
Format profile                           : Layer 3
Codec ID                                 : A_MPEG/L3
Codec ID/Hint                            : MP3
Duration                                 : 2 h 2 min
Bit rate mode                            : Variable
Bit rate                                 : 212 kb/s
Channel(s)                               : 2 channels
Sampling rate                            : 48.0 kHz
Frame rate                               : 41.667 FPS (1152 spf)
Compression mode                         : Lossy
Stream size                              : 187 MiB (5%)
Default                                  : Yes
Forced                                   : No
 
 
 
Language: English cleaned
 
Source: Russian
 
Pretty Good
Screens:
http://imgur.com/a/JAa2k
http://i.imgur.com/CceZhYs.png
http://i.imgur.com/xOKxshA.png
http://i.imgur.com/KowomMX.png
http://i.imgur.com/H5fel99.png
http://i.imgur.com/kinlyNm.png
http://i.imgur.com/2brIOSs.png
http://i.imgur.com/wcEgewn.png
http://i.imgur.com/qSpIe2x.png
http://i.imgur.com/3mPIBQC.png
 
Best video and best audio from the movie