02/09/2017

================================================================================
http://www.allocine.fr/film/fichefilm_gen_cfilm=207060.html
*                                                                              *

Date de sortie 14 juin 2017 (1h 51min)
De Alex Kurtzman
Avec Tom Cruise, Sofia Boutella, Annabelle Wallis plus
Genres Fantastique, Aventure, Epouvante-horreur
Nationalite americain
*                                                                              *
Bien quÆelle ait ete consciencieusement enterree dans un tombeau au fin fond dÆun
 insondable desert, une princesse de lÆancienne Egypte, dont le destin lui a ete 
injustement ravi, revient a la vie et va deverser sur notre monde des siecles de 
rancoeurs accumulees et de terreur depassant lÆentendement humain. Des sables du 
Moyen Orient aux paves de Londres en passant par les tenebreux labyrinthes dÆ
antiques tombeaux derobes, La Momie nous transporte dans un monde a la fois 
errifiant et merveilleux, peuple de monstres et de divinites, depoussierant au 
passage un mythe vieux comme le monde. 

================================================================================
*                        Fichiers contenus dans le post                        *
================================================================================

--------------------------------------------------------------------------------
The.Mummy.2017.FR.BDRip.XviD.boheme \
--------------------------------------------------------------------------------
The.Mummy.2017.FR.BDRip.XviD.boheme.avi                                 01:50:05

Duree................: 01:50:05
Taille des fichiers..: 700.73 Mo


--------------------------------------------------------------------------------
The.Mummy.2017.FR.BDRip.XviD.boheme \The.Mummy.2017.FR.BDRip.XviD.boheme
--------------------------------------------------------------------------------
The.Mummy.2017.FR.BDRip.XviD.boheme.nfo

Taille des fichiers..: 0 Octets

================================================================================
*Duree totale du post .........: 01:50:05                                      *
*Taille totale du post ........: 700.73 Mo                                     *
================================================================================

================================================================================
*                   The.Mummy.2017.FR.BDRip.XviD.boheme.avi                    *
================================================================================
*Format                        : AVI                                           *
*Format/Info                   : Audio Video Interleave                        *
*File size                     : 701 MiB                                       *
*Duration                      : 1h 50mn                                       *
*Overall bit rate              : 890 Kbps                                      *
*Writing application           : Lavf57.25.100                                 *
*=================================== Video ====================================*
*ID                            : 0                                             *
*Format                        : MPEG-4 Visual                                 *
*Format profile                : Advanced [email protected]                            *
*Format settings, BVOP         : 2                                             *
*Format settings, QPel         : No                                            *
*Format settings, GMC          : No warppoints                                 *
*Format settings, Matrix       : Default (H.263)                               *
*Muxing mode                   : Packed bitstream                              *
*Codec ID                      : XVID                                          *
*Codec ID/Hint                 : XviD                                          *
*Duration                      : 1h 50mn                                       *
*Bit rate                      : 749 Kbps                                      *
*Width                         : 720 pixels                                    *
*Height                        : 300 pixels                                    *
*Display aspect ratio          : 2.40:1                                        *
*Frame rate                    : 23.976 fps                                    *
*Color space                   : YUV                                           *
*Chroma subsampling            : 4:2:0                                         *
*Bit depth                     : 8 bits                                        *
*Scan type                     : Progressive                                   *
*Compression mode              : Lossy                                         *
*Bits/(Pixel*Frame)            : 0.145                                         *
*Stream size                   : 590 MiB (84%)                                 *
*Writing library               : XviD 64                                       *
*================================== Audio #1 ==================================*
*ID                            : 1                                             *
*Format                        : MPEG Audio                                    *
*Format version                : Version 1                                     *
*Format profile                : Layer 3                                       *
*Codec ID                      : 55                                            *
*Codec ID/Hint                 : MP3                                           *
*Duration                      : 1h 50mn                                       *
*Bit rate mode                 : Constant                                      *
*Bit rate                      : 128 Kbps                                      *
*Channel(s)                    : 2 channels                                    *
*Sampling rate                 : 48.0 KHz                                      *
*Compression mode              : Lossy                                         *
*Stream size                   : 101 MiB (14%)                                 *
*Alignment                     : Aligned on interleaves                        *
*Interleave, duration          : 24 ms (0.58 video frame)                      *
*Interleave, preload duration  : 24 ms                                         *
*Writing library               : LAME3.98.2                                    *

================================================================================

pw : catalina