General
Unique ID                                : 239704095019560094695513705662542922594 (0xB45554561DF4DE92C1D0CEAA66364362)
Complete name                            : Spider-Man.Homecoming.2017.1080p.AMZN.WEB-DL.DD+5.1.H.264-SiGMA.mkv
Format                                   : Matroska
Format version                           : Version 4 / Version 2
File size                                : 8.19 GiB
Duration                                 : 2h 54mn
Overall bit rate mode                    : Variable
Overall bit rate                         : 6 702 Kbps
Encoded date                             : UTC 2017-09-26 07:27:03
Writing application                      : mkvmerge v15.0.0 ('Duel with the Devil') 64-bit
Writing library                          : libebml v1.3.5 + libmatroska v1.4.5

Video
ID                                       : 1
Format                                   : AVC
Format/Info                              : Advanced Video Codec
Format profile                           : [email protected]
Format settings, CABAC                   : Yes
Format settings, ReFrames                : 4 frames
Codec ID                                 : V_MPEG4/ISO/AVC
Duration                                 : 2h 54mn
Bit rate mode                            : Variable
Bit rate                                 : 6 060 Kbps
Maximum bit rate                         : 15.0 Mbps
Width                                    : 1 920 pixels
Height                                   : 1 080 pixels
Display aspect ratio                     : 16:9
Frame rate mode                          : Constant
Frame rate                               : 23.976 (24000/1001) fps
Color space                              : YUV
Chroma subsampling                       : 4:2:0
Bit depth                                : 8 bits
Scan type                                : Progressive
Bits/(Pixel*Frame)                       : 0.122
Stream size                              : 7.41 GiB (90%)
Default                                  : Yes
Forced                                   : No
Color range                              : Limited
Color primaries                          : BT.709
Transfer characteristics                 : BT.709
Matrix coefficients                      : BT.709

Audio
ID                                       : 2
Format                                   : E-AC-3
Format/Info                              : Audio Coding 3
Format settings, Endianness              : Big
Codec ID                                 : A_EAC3
Duration                                 : 2h 54mn
Bit rate mode                            : Constant
Bit rate                                 : 640 Kbps
Channel(s)                               : 6 channels
Channel positions                        : Front: L C R, Side: L R, LFE
Sampling rate                            : 48.0 KHz
Frame rate                               : 187.500 fps (256 spf)
Compression mode                         : Lossy
Stream size                              : 801 MiB (10%)
Language                                 : English
Default                                  : Yes
Forced                                   : No

Menu
00:00:00.000                             : en:Stay Tuned
00:00:10.000                             : en:Studio Logos
00:00:46.000                             : en:Toomes loses a job and gains a new one
00:05:06.000                             : en:Marvel Logo
00:05:41.000                             : en:a Film by Peter Parker
00:10:04.000                             : en:Peter waits the school day out
00:14:42.000                             : en:Spider-Man keeps the neighborhood friendly
00:18:15.000                             : en:Spider-Man battles the Avengers
00:20:59.000                             : en:Peter finds a surprise at home
00:25:53.000                             : en:Ned asks for all the details
00:29:19.000                             : en:Peter debates bringing Spider-Man to the party
00:32:10.000                             : en:Spider-Man chases after a van
00:36:56.000                             : en:Tony instructs Peter to stand down
00:39:27.000                             : en:Toomes attempts to reason with his crew
00:42:33.000                             : en:Ned helps Peter with a shop project
00:46:12.000                             : en:Peter rejoins the team
00:50:22.000                             : en:Spider-Man makes a new friend while tracking bad guys
00:54:48.000                             : en:Spider-Man races back to his team
00:58:57.000                             : en:The Decathlon Team celebrates at the Washington Monument
01:05:18.000                             : en:Toomes contemplates his recent run of bad luck
01:06:23.000                             : en:The Decathlon team is welcomed back as heroes
01:08:48.000                             : en:Peter tries out interrogation mode
01:12:11.000                             : en:Spider-Man commutes on the ferry
01:19:51.000                             : en:Toomes calls for a bigger job
01:20:28.000                             : en:Perter faces the consequences of his mistake
01:23:43.000                             : en:Peter turns himself around
01:27:05.000                             : en:Peter meets Liz's family
01:29:50.000                             : en:Toomes gives Peter the Dad talk
01:34:21.000                             : en:Peter leaves the dance early
01:36:47.000                             : en:Ned gives Spider-Man directions
01:39:28.000                             : en:Spider-Man locates the Vulture's lair
01:42:33.000                             : en:Peter picks himself up
01:44:52.000                             : en:Vulture takes to the sky
01:50:34.000                             : en:Spider-Man and Vulture battle
01:54:39.000                             : en:Peter says a difficult goodbye
01:56:10.000                             : en:The Decathlon Team celebrates their win
01:58:02.000                             : en:Tony makes Peter an offer
02:02:26.000                             : en:Peter suits up
02:03:04.000                             : en:End Credits
02:05:13.000                             : en:Toomes encounters a former business partner
02:06:07.000                             : en:End Credits Continued
02:12:38.000                             : en:Patience
02:13:36.000                             : en:a Film by Peter Parker (Extended Director's Cut)
02:19:13.000                             : en:Deleted Scenes
02:25:20.000                             : en:Midtown Technical High School News
02:28:38.000                             : en:Mr. Harrington Lessons in Love
02:30:47.000                             : en:Aftermath
02:35:35.000                             : en:Searching for Spider-Man
02:43:34.000                             : en:Spidey Stunts
02:49:27.000                             : en:Jon Watts: Head of the Class