Logan.Lucky.2017.1080p.WEB-DL.DD5.1.H264-FGT

Genre:  Comedy | Crime | Drama
IMDB: http://www.imdb.com/title/tt5439796/
Directed by:  Steven Soderbergh
Starring: Channing Tatum, Adam Driver, Daniel Craig
Language: English
Plot: Two brothers attempt to pull off a heist during 
a NASCAR race in North Carolina.

NFO:
Release Name: Logan.Lucky.2017.1080p.WEB-DL.DD5.1.H264-FGT
Size: 4.08 GB
Video: MKV | 1920╫804 | 4433 kb/s
Audio: English | AC3 | 384 kb/s
Runtime: 1h 59mn


Mediainfo:

    Video
    ID                                       : 0
    Format                                   : MPEG-4 Visual
    Format profile                           : [email protected]
    Format settings, BVOP                    : No
    Format settings, QPel                    : No
    Format settings, GMC                     : No warppoints
    Format settings, Matrix                  : Default (H.263)
    Codec ID                                 : XVID
    Codec ID/Hint                            : XviD
    Duration                                 : 1 h 59 min
    Bit rate                                 : 1 507 kb/s
    Width                                    : 720 pixels
    Height                                   : 304 pixels
    Display aspect ratio                     : 2.40:1
    Frame rate                               : 23.976 (24000/1001) FPS
    Color space                              : YUV
    Chroma subsampling                       : 4:2:0
    Bit depth                                : 8 bits
    Scan type                                : Progressive
    Compression mode                         : Lossy
    Bits/(Pixel*Frame)                       : 0.287
    Stream size                              : 1.25 GiB (79%)
    Writing library                          : Lavc58.1.100
     
    Audio
    ID                                       : 1
    Format                                   : AC-3
    Format/Info                              : Audio Coding 3
    Codec ID                                 : 2000
    Duration                                 : 1 h 59 min
    Bit rate mode                            : Constant
    Bit rate                                 : 384 kb/s
    Channel(s)                               : 6 channels
    Channel positions                        : Front: L C R, Side: L R, LFE
    Sampling rate                            : 48.0 kHz
    Frame rate                               : 31.250 FPS (1536 SPF)
    Bit depth                                : 16 bits
    Compression mode                         : Lossy
    Stream size                              : 327 MiB (20%)
    Alignment                                : Aligned on interleaves
    Interleave, duration                     : 42  ms (1.00 video frame)
    Interleave, preload duration             : 512  ms
    Service kind                             : Complete Main