General

Complete name                            : Raising Cain (1992).DVDRip.HEVC.AC3.mkv
Format                                   : Matroska
Format version                           : Version 2
File size                                : 914 MiB
Duration                                 : 1 h 31 min
Overall bit rate                         : 1 396 kb/s
Movie name                               : RAISING_CAIN.Title1
Encoded date                             : UTC 2019-02-28 19:17:41
Writing application                      : DVDFab 11.0.0.5
Writing library                          : libebml v1.3.4 + libmatroska v1.4.5

Video
ID                                       : 1
Format                                   : HEVC
Format/Info                              : High Efficiency Video Coding
Format profile                           : [email protected]@Main
Codec ID                                 : V_MPEGH/ISO/HEVC
Duration                                 : 1 h 31 min
Bit rate                                 : 1 204 kb/s
Width                                    : 720 pixels
Height                                   : 388 pixels
Display aspect ratio                     : 1.85:1
Frame rate mode                          : Constant
Frame rate                               : 23.976 (24000/1001) FPS
Color space                              : YUV
Chroma subsampling                       : 4:2:0
Bit depth                                : 8 bits
Bits/(Pixel*Frame)                       : 0.180
Stream size                              : 787 MiB (86%)
Default                                  : Yes
Forced                                   : No
Color range                              : Limited
Color primaries                          : BT.601 NTSC
Transfer characteristics                 : BT.709
Matrix coefficients                      : BT.601

Audio
ID                                       : 2
Format                                   : AC-3
Format/Info                              : Audio Coding 3
Commercial name                          : Dolby Digital
Codec ID                                 : A_AC3
Duration                                 : 1 h 31 min
Bit rate mode                            : Constant
Bit rate                                 : 192 kb/s
Channel(s)                               : 2 channels
Channel layout                           : L R
Sampling rate                            : 48.0 kHz
Frame rate                               : 31.250 FPS (1536 SPF)
Bit depth                                : 16 bits
Compression mode                         : Lossy
Stream size                              : 126 MiB (14%)
Language                                 : English
Service kind                             : Complete Main
Default                                  : Yes
Forced                                   : No

Text
ID                                       : 3
Format                                   : VobSub
Codec ID                                 : S_VOBSUB
Codec ID/Info                            : Picture based subtitle format used on DVDs
Bit rate                                 : 0 b/s
Count of elements                        : 0
Stream size                              : 0.00 Byte (0%)
Language                                 : English
Default                                  : No
Forced                                   : No

Menu
00:00:00.000                             : en:(01)00:00:00:000
00:07:11.000                             : en:(02)00:07:11:000
00:10:43.766                             : en:(03)00:10:43:766
00:13:35.632                             : en:(04)00:13:35:632
00:17:44.365                             : en:(05)00:17:44:365
00:34:18.765                             : en:(06)00:34:18:765
00:38:55.865                             : en:(07)00:38:55:865
00:44:25.865                             : en:(08)00:44:25:865
00:47:48.498                             : en:(09)00:47:48:498
00:53:23.764                             : en:(10)00:53:23:764
00:58:23.497                             : en:(11)00:58:23:497
01:00:38.363                             : en:(12)01:00:38:363
01:03:32.229                             : en:(13)01:03:32:229
01:16:05.229                             : en:(14)01:16:05:229
01:19:57.595                             : en:(15)01:19:57:595
01:25:47.861                             : en:(16)01:25:47:861
01:31:26.994                             : en:(17)01:31:26:994