General

Format                                   : Matroska
Format version                           : Version 2
File size                                : 1.76 GiB
Duration                                 : 1 h 50 min
Overall bit rate                         : 2 291 kb/s
Movie name                               : The Picture Of Dorian Gray (1945).DVDRip.HEVC.AC3
Encoded date                             : UTC 2019-06-02 19:38:19
Writing application                      : DVDFab 11.0.0.5
Writing library                          : libebml v1.3.4 + libmatroska v1.4.5

Video
ID                                       : 1
Format                                   : HEVC
Format/Info                              : High Efficiency Video Coding
Format profile                           : [email protected]@Main
Codec ID                                 : V_MPEGH/ISO/HEVC
Duration                                 : 1 h 50 min
Bit rate                                 : 1 902 kb/s
Width                                    : 640 pixels
Height                                   : 480 pixels
Display aspect ratio                     : 4:3
Frame rate mode                          : Constant
Frame rate                               : 23.976 (24000/1001) FPS
Color space                              : YUV
Chroma subsampling                       : 4:2:0
Bit depth                                : 8 bits
Bits/(Pixel*Frame)                       : 0.258
Stream size                              : 1.46 GiB (83%)
Default                                  : Yes
Forced                                   : No
Color range                              : Limited
Color primaries                          : BT.601 NTSC
Transfer characteristics                 : BT.709
Matrix coefficients                      : BT.601

Audio #1
ID                                       : 2
Format                                   : AC-3
Format/Info                              : Audio Coding 3
Commercial name                          : Dolby Digital
Codec ID                                 : A_AC3
Duration                                 : 1 h 50 min
Bit rate mode                            : Constant
Bit rate                                 : 192 kb/s
Channel(s)                               : 2 channels
Channel layout                           : L R
Sampling rate                            : 48.0 kHz
Frame rate                               : 31.250 FPS (1536 SPF)
Bit depth                                : 16 bits
Compression mode                         : Lossy
Stream size                              : 151 MiB (8%)
Language                                 : English
Service kind                             : Complete Main
Default                                  : Yes
Forced                                   : No

Audio #2
ID                                       : 3
Format                                   : AC-3
Format/Info                              : Audio Coding 3
Commercial name                          : Dolby Digital
Codec ID                                 : A_AC3
Duration                                 : 1 h 50 min
Bit rate mode                            : Constant
Bit rate                                 : 192 kb/s
Channel(s)                               : 2 channels
Channel layout                           : L R
Sampling rate                            : 48.0 kHz
Frame rate                               : 31.250 FPS (1536 SPF)
Bit depth                                : 16 bits
Compression mode                         : Lossy
Stream size                              : 151 MiB (8%)
Language                                 : English
Service kind                             : Complete Main
Default                                  : No
Forced                                   : No

Text #1
ID                                       : 4
Format                                   : VobSub
Codec ID                                 : S_VOBSUB
Codec ID/Info                            : Picture based subtitle format used on DVDs
Duration                                 : 1 h 48 min
Bit rate                                 : 4 345 b/s
Count of elements                        : 1438
Stream size                              : 3.37 MiB (0%)
Language                                 : English
Default                                  : No
Forced                                   : No

Text #2
ID                                       : 5
Format                                   : VobSub
Codec ID                                 : S_VOBSUB
Codec ID/Info                            : Picture based subtitle format used on DVDs
Bit rate                                 : 0 b/s
Count of elements                        : 0
Stream size                              : 0.00 Byte (0%)
Language                                 : English
Default                                  : No
Forced                                   : No

Menu
00:00:00.000                             : en:(01)00:00:00:000
00:01:39.333                             : en:(02)00:01:39:333
00:06:19.366                             : en:(03)00:06:19:366
00:11:03.832                             : en:(04)00:11:03:832
00:13:09.698                             : en:(05)00:13:09:698
00:18:35.998                             : en:(06)00:18:35:998
00:23:34.664                             : en:(07)00:23:34:664
00:25:44.030                             : en:(08)00:25:44:030
00:29:04.196                             : en:(09)00:29:04:196
00:33:06.996                             : en:(10)00:33:06:996
00:37:58.996                             : en:(11)00:37:58:996
00:43:35.029                             : en:(12)00:43:35:029
00:48:24.529                             : en:(13)00:48:24:529
00:54:44.695                             : en:(14)00:54:44:695
00:57:24.028                             : en:(15)00:57:24:028
01:03:23.828                             : en:(16)01:03:23:828
01:08:23.494                             : en:(17)01:08:23:494
01:12:05.494                             : en:(18)01:12:05:494
01:15:51.327                             : en:(19)01:15:51:327
01:21:20.360                             : en:(20)01:21:20:360
01:23:16.526                             : en:(21)01:23:16:526
01:26:23.659                             : en:(22)01:26:23:659
01:30:34.159                             : en:(23)01:30:34:159
01:34:08.659                             : en:(24)01:34:08:659
01:38:29.692                             : en:(25)01:38:29:692
01:43:10.992                             : en:(26)01:43:10:992
01:48:06.992                             : en:(27)01:48:06:992
01:49:14.492                             : en:(28)01:49:14:492
01:50:08.992                             : en:(29)01:50:08:992