https://www.imdb.com/title/tt0066026/

General
Complete name                            : MASH.1970.720p.mkv
Format                                   : Matroska
Format version                           : Version 4
File size                                : 1.37 GiB
Duration                                 : 1 h 55 min
Overall bit rate                         : 1 693 kb/s
Encoded date                             : UTC 2020-02-24 01:02:30
Writing application                      : mkvmerge v41.0.0 ('Smarra') 64-bit
Writing library                          : libebml v1.3.9 + libmatroska v1.5.2

Video
ID                                       : 1
Format                                   : AVC
Format/Info                              : Advanced Video Codec
Format profile                           : [email protected]
Format settings                          : CABAC / 6 Ref Frames
Format settings, CABAC                   : Yes
Format settings, Reference frames        : 6 frames
Codec ID                                 : V_MPEG4/ISO/AVC
Duration                                 : 1 h 55 min
Bit rate                                 : 1 433 kb/s
Width                                    : 1 280 pixels
Height                                   : 544 pixels
Display aspect ratio                     : 2.35:1
Frame rate mode                          : Constant
Frame rate                               : 23.976 (24000/1001) FPS
Color space                              : YUV
Chroma subsampling                       : 4:2:0
Bit depth                                : 8 bits
Scan type                                : Progressive
Bits/(Pixel*Frame)                       : 0.086
Stream size                              : 1.16 GiB (85%)
Writing library                          : x264 core 157 r2935 545de2f
Encoding settings                        : cabac=1 / ref=6 / deblock=1:-1:-1 / analyse=0x3:0x133 / me=umh / subme=9 / psy=1 / psy_rd=1.00:0.15 / mixed_ref=1 / me_range=16 / chroma_me=1 / trellis=2 / 8x8dct=1 / cqm=0 / deadzone=21,11 / fast_pskip=1 / chroma_qp_offset=-3 / threads=6 / lookahead_threads=1 / sliced_threads=0 / nr=0 / decimate=1 / interlaced=0 / bluray_compat=0 / constrained_intra=0 / bframes=3 / b_pyramid=2 / b_adapt=2 / b_bias=0 / direct=3 / weightb=1 / open_gop=0 / weightp=2 / keyint=240 / keyint_min=24 / scenecut=40 / intra_refresh=0 / rc_lookahead=60 / rc=crf / mbtree=1 / crf=22.0 / qcomp=0.60 / qpmin=0 / qpmax=69 / qpstep=4 / vbv_maxrate=17500 / vbv_bufsize=17500 / crf_max=0.0 / nal_hrd=none / filler=0 / ip_ratio=1.40 / aq=1:1.00
Default                                  : Yes
Forced                                   : No
Color range                              : Limited
Color primaries                          : BT.709
Transfer characteristics                 : BT.709
Matrix coefficients                      : BT.709

Audio
ID                                       : 2
Format                                   : AAC LC
Format/Info                              : Advanced Audio Codec Low Complexity
Codec ID                                 : A_AAC-2
Duration                                 : 1 h 55 min
Bit rate                                 : 257 kb/s
Channel(s)                               : 2 channels
Channel layout                           : L R
Sampling rate                            : 48.0 kHz
Frame rate                               : 46.875 FPS (1024 SPF)
Compression mode                         : Lossy
Delay relative to video                  : -21 ms
Stream size                              : 213 MiB (15%)
Title                                    : Stereo
Language                                 : English
Default                                  : Yes
Forced                                   : No

Text
ID                                       : 3
Format                                   : UTF-8
Codec ID                                 : S_TEXT/UTF8
Codec ID/Info                            : UTF-8 Plain Text
Duration                                 : 1 h 52 min
Bit rate                                 : 86 b/s
Count of elements                        : 1619
Stream size                              : 71.3 KiB (0%)
Title                                    : English subtitles
Language                                 : English
Default                                  : No
Forced                                   : No

Menu
00:00:00.000                             : :00:00:00.000
00:03:04.851                             : :00:03:04.684
00:05:07.140                             : :00:05:06.973
00:07:09.596                             : :00:07:09.512
00:11:00.493                             : :00:11:00.493
00:13:01.948                             : :00:13:01.864
00:14:26.366                             : :00:14:26.115
00:19:29.835                             : :00:19:29.752
00:24:50.322                             : :00:24:50.239
00:27:48.834                             : :00:27:48.584
00:32:00.419                             : :00:32:00.293
00:36:56.381                             : :00:36:56.172
00:38:02.113                             : :00:38:01.988
00:41:04.462                             : :00:41:04.295
00:45:28.559                             : :00:45:28.517
00:47:28.512                             : :00:47:28.471
00:51:09.567                             : :00:51:09.483
00:55:39.169                             : :00:55:39.002
00:57:51.969                             : :00:57:51.677
01:02:57.607                             : :01:02:57.482
01:06:46.169                             : :01:06:46.002
01:09:10.813                             : :01:09:10.563
01:14:29.799                             : :01:14:29.632
01:15:54.550                             : :01:15:54.425
01:17:17.633                             : :01:17:17.508
01:19:47.116                             : :01:19:47.032
01:22:18.267                             : :01:22:18.225
01:24:12.548                             : :01:24:12.506
01:26:16.672                             : :01:26:16.588
01:28:41.983                             : :01:28:41.900
01:30:03.899                             : :01:30:03.898
01:30:57.452                             : :01:30:57.410
01:35:18.546                             : :01:35:18.421
01:37:19.167                             : :01:37:19.042
01:42:22.136                             : :01:42:21.927
01:43:18.359                             : :01:43:18.275
01:45:34.829                             : :01:45:34.662
01:48:54.862                             : :01:48:54.862
01:52:00.214                             : :01:52:00.172
01:54:41.708                             : :01:54:41.583