BOHEME
================================================================================
* http://www.allocine.fr/film/fichefilm_gen_cfilm=215097.html                  *
*                                                                              *
* Titre          : Star Wars - Le Reveil de la Force                           *
* Titre original : Star Wars: Episode VII - The Force Awakens                  *
* Date sortie    : 16 decembre 2015                                            *
* Annee de prod. : 2015                                                        *
* Realisateur    : J.J. Abrams                                                 *
* Avec           : Daisy Ridley, John Boyega, Adam Driver                      *
* Pays d'origine : Americain                                                   *
* Duree          : 2h15min                                                     *
*                                                                              *
* Descriptif     :                                                             *
* Dans une galaxie lointaine, tres lointaine, un nouvel episode de la saga     *
* "Star Wars", 30 ans apres les evenements du "Retour du Jedi".                *

================================================================================
*                        Fichiers contenus dans le post                        *
================================================================================

--------------------------------------------------------------------------------
Star.Wars.The.Force.Awakens.2015.FR.HD-CAM.MD.XviD.boheme \
--------------------------------------------------------------------------------
Star Wars  Le Reveil de la Force.jpg
Star.Wars.The.Force.Awakens.2015.FR.HD-CAM.MD.XviD.boheme.avi           02:06:11

Duree................: 02:06:11
Taille des fichiers..: 1.09 Go


--------------------------------------------------------------------------------
Star.Wars.The.Force.Awakens.2015.FR.HD-CAM.MD.XviD.boheme \Star.Wars.The.Force.A
wakens.2015.FR.HD-CAM.MD.XviD.boheme
--------------------------------------------------------------------------------
Star.Wars.The.Force.Awakens.2015.FR.HD-CAM.MD.XviD.boheme.nfo

Taille des fichiers..: 0 Octets

================================================================================
*Duree totale du post .........: 02:06:11                                      *
*Taille totale du post ........: 1.09 Go                                       *
================================================================================

================================================================================
*        Star.Wars.The.Force.Awakens.2015.FR.HD-CAM.MD.XviD.boheme.avi         *
================================================================================
*Format                        : AVI                                           *
*Format/Info                   : Audio Video Interleave                        *
*Format profile                : OpenDML                                       *
*File size                     : 1.09 GiB                                      *
*Duration                      : 2h 6mn                                        *
*Overall bit rate              : 1 235 Kbps                                    *
*Writing application           : MEncoder SVN-r33883(20110719-gcc4.5.2)        *
*Writing library               : MPlayer                                       *
*=================================== Video ====================================*
*ID                            : 0                                             *
*Format                        : MPEG-4 Visual                                 *
*Format profile                : Advanced [email protected]                            *
*Format settings, BVOP         : 2                                             *
*Format settings, QPel         : No                                            *
*Format settings, GMC          : No warppoints                                 *
*Format settings, Matrix       : Default (H.263)                               *
*Codec ID                      : XVID                                          *
*Codec ID/Hint                 : XviD                                          *
*Duration                      : 2h 6mn                                        *
*Bit rate                      : 1 090 Kbps                                    *
*Width                         : 720 pixels                                    *
*Height                        : 304 pixels                                    *
*Display aspect ratio          : 2.35:1                                        *
*Original display aspect ratio : 2.35:1                                        *
*Frame rate                    : 29.970 fps                                    *
*Color space                   : YUV                                           *
*Chroma subsampling            : 4:2:0                                         *
*Bit depth                     : 8 bits                                        *
*Scan type                     : Progressive                                   *
*Compression mode              : Lossy                                         *
*Bits/(Pixel*Frame)            : 0.166                                         *
*Stream size                   : 984 MiB (88%)                                 *
*Writing library               : XviD 1.2.1 (UTC 2008-12-04)                   *
*================================== Audio #1 ==================================*
*ID                            : 1                                             *
*Format                        : MPEG Audio                                    *
*Format version                : Version 1                                     *
*Format profile                : Layer 3                                       *
*Mode                          : Joint stereo                                  *
*Mode extension                : MS Stereo                                     *
*Codec ID                      : 55                                            *
*Codec ID/Hint                 : MP3                                           *
*Duration                      : 2h 6mn                                        *
*Bit rate mode                 : Constant                                      *
*Bit rate                      : 128 Kbps                                      *
*Channel(s)                    : 2 channels                                    *
*Sampling rate                 : 44.1 KHz                                      *
*Compression mode              : Lossy                                         *
*Delay relative to video       : 33ms                                          *
*Stream size                   : 116 MiB (10%)                                 *
*Alignment                     : Aligned on interleaves                        *
*Interleave, duration          : 26 ms (0.78 video frame)                      *
*Interleave, preload duration  : 522 ms                                        *
*Writing library               : LAME3.98.4                                    *

================================================================================