16/03/2021

https://www.allocine.fr/film/fichefilm_gen_cfilm=276409.html
https://www.themoviedb.org/movie/632023-the-college-admissions
-scandal?language=fr-FR

================================================================================
* https://www.allocine.fr/film/fichefilm_gen_cfilm=276409.html                 *
*                                                                              *
* Titre          : The College Admissions Scandal                              *
* Année de prod. : 2021                                                        *
* Avec           : Penelope Ann Miller, Mia Kirshner, Michael Shanks (I)       *
*                                                                              *
Deux mères fortunées, Caroline et Bethany, offrent des pots-de-vin à Rick Singer,
qui s'occupe des admissions, afin que les dossiers de leurs filles soient 
falsifiés. Ces dernières pourront alors intégrer les meilleures universités 
américaines. Quand Singer se fait arrêter par le FBI, il plaide rapidement 
coupable et coopère. Les mères de famille vont devoir faire face 
aux conséquences de leur délit...

================================================================================
*                        Fichiers contenus dans le post                        *
================================================================================
Prête à tout pour mon enfant, même l'illégalité ! (2019) -French 720p.mp01:26:11
================================================================================
* Duree totale du post .........: 01:26:11                                     *
* Taille totale du post ........: 1.03 Go                                      *
================================================================================

================================================================================
*  Prête à tout pour mon enfant, même l'illégalité ! (2019) -French 720p.mp4   *
================================================================================
* Format                        : MPEG-4                                       *
* Format profile                : Base Media                                   *
* Codec ID                      : isom                                         *
* File size                     : 1.03 GiB                                     *
* Duration                      : 1h 26mn                                      *
* Overall bit rate              : 1 716 Kbps                                   *
* Writing application           : Lavf55.12.100                                *
* ================================== Video =================================== *
* ID                            : 2                                            *
* Format                        : AVC                                          *
* Format/Info                   : Advanced Video Codec                         *
* Format profile                : [email protected]                                    *
* Format settings, CABAC        : Yes                                          *
* Format settings, ReFrames     : 2 frames                                     *
* Format settings, GOP          : M=3, N=30                                    *
* Codec ID                      : avc1                                         *
* Codec ID/Info                 : Advanced Video Coding                        *
* Duration                      : 1h 26mn                                      *
* Bit rate                      : 1 578 Kbps                                   *
* Width                         : 1 280 pixels                                 *
* Height                        : 720 pixels                                   *
* Display aspect ratio          : 16:9                                         *
* Frame rate mode               : Constant                                     *
* Frame rate                    : 29.970 fps                                   *
* Color space                   : YUV                                          *
* Chroma subsampling            : 4:2:0                                        *
* Bit depth                     : 8 bits                                       *
* Scan type                     : Progressive                                  *
* Bits/(Pixel*Frame)            : 0.057                                        *
* Stream size                   : 973 MiB (92%)                                *
* ================================= Audio #1 ================================= *
* ID                            : 1                                            *
* Format                        : AAC                                          *
* Format/Info                   : Advanced Audio Codec                         *
* Format profile                : LC                                           *
* Codec ID                      : 40                                           *
* Duration                      : 1h 26mn                                      *
* Bit rate mode                 : Constant                                     *
* Bit rate                      : 132 Kbps                                     *
* Channel(s)                    : 2 channels                                   *
* Channel positions             : Front: L R                                   *
* Sampling rate                 : 48.0 KHz                                     *
* Compression mode              : Lossy                                        *
* Delay relative to video       : -1s 1ms                                      *
* Stream size                   : 80.1 MiB (8%)                                *
* ================================= Texte #1 ================================= *
* ID                            : 2-CC1                                        *
* Format                        : EIA-608                                      *
* Muxing mode                   : AVC / SCTE 128 / DTVCC Transport             *
* Muxing mode, more info        : Muxed in Video #1                            *
* Duration                      : 1h 26mn                                      *
* Bit rate mode                 : Constant                                     *
* Stream size                   : 0.00 Byte (0%)                               *
* Encoded stream size           : 0.00 Byte (0%)                               *
* ================================= Texte #2 ================================= *
* ID                            : 2-1                                          *
* Format                        : EIA-708                                      *
* Muxing mode                   : AVC / SCTE 128 / DTVCC Transport             *
* Muxing mode, more info        : Muxed in Video #1                            *
* Duration                      : 1h 26mn                                      *
* Bit rate mode                 : Constant                                     *
* Stream size                   : 0.00 Byte (0%)                               *
* Encoded stream size           : 0.00 Byte (0%)                               *

================================================================================
*                           INFORMATION SUR LE POST                            *
================================================================================
* Taille des donnees sans par2..: 1.03 Go                                      *
* Nombre de rar.................: 28                                           *
* Taille des rar................: 38.45 Mo                                     *
* Par2..........................: 10%                                          *
* Nombre de bloc de recup.......: 289                                          *
* Taille d'un bloc..............: 375.00 Ko                                    *
* Nom a rechercher..............: 0331P00L9K554EPY970Q                         *
* Posteur.......................: [email protected]                            *
* Groupes.......................: a.b.french,a.b.movies.divx.french            *


pw : H5PQUN